logo
Main Page Sitemap

Most viewed

Me pagan por encuestas

Me sentía triste y deprimido y no sabía qué hacer, cuando uno de mis amigos de toda la vida me invitó a un asado en su casa.Y me refiero a ganar dinero completando encuestas premios bankia pagas por internet.Si quieres


Read more

Descargar la cancion ganas locas de prince royce

ArrayPrince, royce - five (Deluxe Edition) Nota.Loca, eklectico ft NeonG, canción, promocionada.Descargar Prince Royce Ft Farruko - Ganas Locas MP3 Gratis Directo A Tu Celular o Movil, En Play Urbano Puedes Disfrutar La Letra Prince Royce Ft Farruko - Ganas


Read more

Quien gano chivas o gallos

Pese a empatar el marcador global (4-4) América quedó subcampeón de la Copa Sudamerica de 2007 ante Arsenal de Sarandí debido al criterio de goles de visitante (3) que favoreció al club argentino.Por su parte, Atlante necesitaba el triunfo en


Read more

Ideas para regalar una carta

Ambas figuras literarias, en el contexto de las contribuciones de la filosofía griega en las épocas clásica y helenística, dieron nacimiento al concepto de ciencia política, el estudio de la evolución política y la crítica de los sistemas de gobierno.Hasta


Read more

Ganado brahman en venta

Usado (50 más especificaciones, con piscina (14 publicidad, mi cuenta.Aunque se trata de un ganado joven y con menos décadas de investigación que otras razas, el trabajo de los criadores de Brahman rojo sin duda ha permitido que estos animales


Read more

Libros de premios nobel

Sumario, escritores premiados, diez de los 100 autores galardonados con el premio en el siglo XX fueron de habla hispana: los españoles.Es enriquecedor entregar por primera vez en español este importante y poético testimonio humanístico, que amplía la percepción sobre


Read more

Cuando regalamos vivencias


Los artistas son las comprar cofre regalo personas generalmente asociadas a un nivel de sensibilidad especialmente alto, ya que suelen estar en contacto con sus emociones más de lo normal y por esa razón parecen percibir matices de la vida cotidiana que el resto ignora.
En el mismo orden, un conjunto de experiencias placenteras dejan una huella que una mera lectura o explicación no suele poder replicar.
Los cantantes y guitarristas, héctor Ayala y Eduardo Fazio son los integrantes que esta agrupación que tuvo dos etapas de actividades: entre 1972 y 1983 y luego a partir de 2005).
Wav Pre-gap length 0:00:02.82 Peak level.7 Track quality 100.0 Test CRC 75ACA95E Copy CRC 75ACA95E Accurately ripped (confidence 4) 3797F584 Copy OK Track 4 Filename D:MusicVicente Amigo1995 Vivencias Imaginadas04 - Mensaje.Wav Pre-gap length 0:00:02.84 Peak level.7 Track quality.9 Test CRC 394C288D Copy CRC 394C288D Accurately ripped (confidence 4) 6DF2F573 Copy OK Track 7 Filename D:MusicVicente Amigo1995 Vivencias Imaginadas07 - Vivencias Imaginadas.Make use of C2 pointers : Yes.Este hecho se fundamenta en que el aprendizaje obtenido por la experiencia garantizará un mejor desempeño en las tareas a realizar.Null samples used in CRC calculations : Yes.Vivencia, por último, es el nombre de un dúo argentino de rock que se formó en 1972.De todos modos, a la ecuación antes esbozada de capacidad vivencial más profundidad de la situación se debe agregar una variable, y es la predisposición que cada individuo tenga a cada tipo de estímulo.En efecto, si establecemos un paralelo con los animales, estos carecen de raciocinio en sentido estricto, pero son capaces de aprender, en especial los mamíferos.
Me quieren ver mal, pero no me voy a dejar.
Que roncan ser soldados, pero nunca se uniforman.
Wav Pre-gap length 0:00:01.84 Peak level.7 Track quality 100.0 Test CRC 571630C3 Copy CRC 571630C3 Accurately ripped (confidence 4) CD32A7FD Copy OK Track 5 Filename D:MusicVicente Amigo1995 Vivencias Imaginadas05 - Querido Metheny.
Aunque me caiga sigo para adelante.
Command line compressor : C:Program FilesExact Audio CopyFlacflac.
Si me caigo diganle a mi hijo cuanto es que lo quiero.
En el ámbito de la psicología, se entiende que las vivencias son aquellas experiencias que marcan la personalidad del individuo.Te matamos el jefe y los demás se embarcan.Así, por ejemplo, el aprendizaje que se logra de una lectura tiene mucho menor impacto que el que se logra de un evento traumático.Read offset correction : 667, overread into Lead-In and Lead-Out :.Estos últimos son quienes casi nunca se ríen de un chiste, o bien parecen no disfrutar de la comedia, ni de la naturaleza, aquellos que fingen estar por encima de todo, que no se dejan impresionar fácilmente por nada ni nadie.Algunos estudiosos de la personalidad hablan de la capacidad vivencial, un concepto que hace referencia a la apertura a formar nuevas vivencias a partir de los sucesos que tienen lugar en la vida: cuanto mayor sea esta capacidad, más hechos dejarán una huella, y viceversa.Esos mismos hechos, para otros, pueden ser muy relevantes y dejar una huella.Me vuelvo loco mandandole con todos los aceros.Camino solo en un desierto, millones de sombras que me quieren muerto.Tomemos el caso de la muerte de una mascota y de las diferentes reacciones posibles ante dicha pérdida.El velador esta cuadrado y el rolex me lo endeca 10 libras de doble bolsa, empaque, cliper el millar.El ser humano, al ser capaz de estar continuamente comprendiendo incorpora continuamente información que le provee el mundo a la par que la resignifica y reelabora.Cuando se logra una terapia satisfactoria, la persona suele reelaborar estas situaciones de modo tal que sean positivas y le ayuden en sus situaciones cotidianas en vez de ser un óbice para un desarrollo posterior.





Tiradores de falco, dile al flaco que vaya a cobrar.
Estamos poniendo normas, fuimos los que creamos la plataforma.

Sitemap